Login
Username:
Password:
[Signup]
[Recover Account]


Browse Torrents

Poll


You must be logged in to view polls



Latest Torrents
Me.Myself.and.I.S0...
- [Size: 468.16 MB]

Me.Myself.and.I.S0...
- [Size: 138.29 MB]

No.Stone.Unturned....
- [Size: 903.51 MB]

Casualty.S32E42.HD...
- [Size: 301.00 MB]

Various Artists - ...
- [Size: 231.66 MB]


Torrent Details For "47.Meters.Down.2017.720p.BluRay.H264.AAC-RARBG"

47.Meters.Down.2017.720p.BluRay.H264.AAC-RARBG

Download this torrent | Magnet Download
Health:
Seeds: 0
Leechers: 18
Completed:
Last Checked: 14-09-2017 15:45:45
External Torrent
Update Stats


Watch-Free-HD     Download

Poster


iMDB
Imdb Picture Title: 47 Meters Down
Year: 2017
Runtime: 89 minutes
Votes: 13049
Rating: 5.8/10
Language: English
Country: UK, USA, Dominican Republic
All Genres: Adventure, Drama, Horror, Thriller
Plot Outline: Two sisters vacationing in Mexico are trapped in a shark cage at the bottom of the ocean. With less than an hour of oxygen left and great white sharks circling nearby, they must fight to survive.
Tagline: Stay out of the water
Director: Johannes Roberts
Writing By: Johannes Roberts,Ernest Riera,
Produced By: Iain Abrahams,Byron Allen,Mark Borde,Andrew Boucher,Alastair Burlingham,Chris Charalambous,Cion,Will Clarke,David Dennehy,Mark DeVitre,Carolyn Folks,Catherine Freeman,David Gilbery,Kate Glover,Wayne Marc Godfrey,James Harris,Patricia Hatcher,Robert Jones,Mark Lane,Arnaud Lannic,Christophe Lannic,Keith Levine,Julian Levy,Simon Lewis,Paul Lisberg,Jennifer Lucas,Alex Mandell,Norman Mandell,Andy Mayson,Duncan McWilliam,Jasmin Morrison,Caroline Risberg,Mike Runagall,Matthew Signer,Lee Stone,Lee Vandermolen,Bob Weinstein,Harvey Weinstein,
Music: tomandandy
Cast:
Mandy Moore as Lisa
Claire Holt as Kate
Chris Johnson as Javier
Yani Gellman as Louis
Santiago Segura as Benjamin
Matthew Modine as Captain Taylor
Mayra Juarez as Sammie
Axel Mansilla as Band Leader
Trailers:
Trailer 2
Trailer
Official Trailer


Watch-Free-HD     Download

Details
Name:47.Meters.Down.2017.720p.BluRay.H264.AAC-RARBG
Description:
MediaInfo

Video
ID                                       : 1
Format                                   : AVC
Format/Info                              : Advanced Video Codec
Format profile                           : [email protected]
Format settings, CABAC                   : Yes
Format settings, ReFrames                : 4 frames
Codec ID                                 : avc1
Codec ID/Info                            : Advanced Video Coding
Duration                                 : 1h 29mn
Bit rate                                 : 1 500 Kbps
Width                                    : 1 280 pixels
Height                                   : 536 pixels
Display aspect ratio                     : 2.40:1
Frame rate mode                          : Constant
Frame rate                               : 23.976 (23976/1000) fps
Color space                              : YUV
Chroma subsampling                       : 4:2:0
Bit depth                                : 8 bits
Scan type                                : Progressive
Bits/(Pixel*Frame)                       : 0.091
Stream size                              : 957 MiB (87%)
Writing library                          : x264 core 152 r2851M ba24899
Encoding settings                        : cabac=1 / ref=4 / deblock=1:-1:-1 / analyse=0x3:0x113 / me=umh / subme=9 / psy=1 / psy_rd=1.00:0.15 / mixed_ref=1 / me_range=24 / chroma_me=1 / trellis=2 / 8x8dct=1 / cqm=0 / deadzone=21,11 / fast_pskip=1 / chroma_qp_offset=-3 / threads=32 / lookahead_threads=4 / sliced_threads=0 / nr=0 / decimate=1 / interlaced=0 / bluray_compat=0 / constrained_intra=0 / bframes=3 / b_pyramid=2 / b_adapt=2 / b_bias=0 / direct=3 / weightb=1 / open_gop=0 / weightp=2 / keyint=250 / keyint_min=25 / scenecut=40 / intra_refresh=0 / rc_lookahead=50 / rc=2pass / mbtree=1 / bitrate=1500 / ratetol=1.0 / qcomp=0.60 / qpmin=0 / qpmax=69 / qpstep=4 / cplxblur=20.0 / qblur=0.5 / vbv_maxrate=31250 / vbv_bufsize=31250 / nal_hrd=none / filler=0 / ip_ratio=1.40 / aq=3:1.00
Encoded date                             : UTC 2017-09-14 14:38:46
Tagged date                              : UTC 2017-09-14 14:38:46

Audio
ID                                       : 2
Format                                   : AAC
Format/Info                              : Advanced Audio Codec
Format profile                           : LC
Codec ID                                 : 40
Duration                                 : 1h 29mn
Bit rate mode                            : Constant
Bit rate                                 : 224 Kbps
Channel(s)                               : 2 channels
Channel(s)_Original                      : 6 channels
Channel positions                        : Front: L C R, Side: L R, LFE
Sampling rate                            : 48.0 KHz
Frame rate                               : 46.875 fps (1024 spf)
Compression mode                         : Lossy
Stream size                              : 143 MiB (13%)
Language                                 : English
Default                                  : Yes
Alternate group                          : 1
Encoded date                             : UTC 2017-09-14 14:38:46
Tagged date                              : UTC 2017-09-14 14:38:46


 
 
 
 
 
Category:Movies > 720P Bluray
Lang:English  English
Total Size:1.08 GB
Info Hash:128e3a82c641e789f7c679579d77eede72ac09c6
Added By:Scene
Date Added:14-09-2017 15:45:44
Downloads:45

Download Torrent

Ratings:Not Yet Rated (Log in to rate it)


Tracker:
http://tracker.trackerfix.com:80/announce


File List: 


Comments

No comments still posted

Powered by 10 Hamsters v2-svn -|- Page Generated In 0.044563 secs.
-|- RSS Feed -|- Feed Info
Theme By: Nikkbu