October 19, 2017 | Slate, Wyn & Me | Night Moves (2013) English 300MB Download


Login
Username:
Password:
[Signup]
[Recover Account]


Browse Torrents

Poll


You must be logged in to view polls



Torrent Details For "Unlocked 2017 720p BluRay x264 AAC 5.1-Download"

Unlocked 2017 720p BluRay x264 AAC 5.1-Download

Download this torrent | Magnet Download
Health:
Seeds: 0
Leechers: 41
Completed:
Last Checked: 08-09-2017 06:57:48
External Torrent
Update Stats


Watch-Free-HD     Download

Poster


Watch-Free-HD     Download

Details
Name:Unlocked 2017 720p BluRay x264 AAC 5.1-Download
Description:
Unlocked 2017 720p BluRay x264 AAC 5.1-Download


Format                      : Matroska
Format version              : Version 4 / Version 2
File size                   : 981 MiB
Duration                    : 1 h 38 min
Overall bit rate            : 1 394 kb/s
Movie name                  : Unlocked.2017-Download


Video
ID                          : 1
Format                      : AVC
Format/Info                 : Advanced Video Codec
Format profile              : [email protected]
Format settings, CABAC      : Yes
Format settings, RefFrames  : 8 frames
Codec ID                    : V_MPEG4/ISO/AVC
Duration                    : 1 h 38 min
Bit rate                    : 1 200 kb/s
Width                       : 1 280 pixels
Height                      : 536 pixels
Display aspect ratio        : 2.40:1
Frame rate mode             : Constant
Frame rate                  : 24.000 FPS


Audio
ID                          : 2
Format                      : AAC
Format/Info                 : Advanced Audio Codec
Format profile              : LC
Codec ID                    : A_AAC
Duration                    : 1 h 38 min
Bit rate                    : 192 kb/s
Channel(s)                  : 6 channels
Channel positions           : Front: L C R, Side: L R, LFE
Sampling rate               : 48.0 kHz
Frame rate                  : 46.875 FPS (1024 SPF)
Compression mode            : Lossy
Delay relative to video     : 9 ms
Stream size                 : 135 MiB (14%)
Language                    : English
Default                     : Yes
Forced                      : No

Text #1
ID                          : 3
Format                      : UTF-8
Codec ID                    : S_TEXT/UTF8
Codec ID/Info               : UTF-8 Plain Text
Duration                    : 1 h 30 min
Bit rate                    : 55 b/s
Count of elements           : 1065
Stream size                 : 36.8 KiB (0%)
Language                    : English
Default                     : No
Forced                      : No

Text #2
ID                          : 4
Format                      : UTF-8
Codec ID                    : S_TEXT/UTF8
Codec ID/Info               : UTF-8 Plain Text
Duration                    : 1 h 30 min
Bit rate                    : 61 b/s
Count of elements           : 1194
Stream size                 : 40.5 KiB (0%)
Title                       : SDH
Language                    : English
Default                     : No
Forced                      : No

Menu
00:00:00.000                : en:00:00:00.000
00:07:36.583                : en:00:07:36.583
00:16:21.583                : en:00:16:21.583
00:23:34.417                : en:00:23:34.417
00:31:06.250                : en:00:31:06.250
00:38:49.125                : en:00:38:49.125
00:47:00.500                : en:00:47:00.500
00:53:55.333                : en:00:53:55.333
01:03:15.208                : en:01:03:15.208
01:09:50.250                : en:01:09:50.250
01:17:26.667                : en:01:17:26.667
01:24:01.542                : en:01:24:01.542

         
Category:Movies > 720P Bluray
Lang:English  English
Total Size:984.21 MB
Info Hash:6a2309aa5af327f7b82663e5ae2950f403026bc2
Added By:Unknown
Date Added:24-08-2017 19:37:40
Downloads:246

Download Torrent

Ratings:Not Yet Rated (Log in to rate it)


Tracker:
http://ipv4.tracker.harry.lu/announce

This Torrent also has backup trackers
URLSeedersLeechersCompleted
http://ipv4.tracker.harry.lu/announce030
http://ipv4.tracker.harry.lu:80/announce030
http://opentracker-milanesi.rhcloud.com/announce030
http://t.nyaatracker.com/announce030
http://tracker.devil-torrents.pl:80/announce030
http://tracker.devil-torrents.pl/announce030
http://open.kickasstracker.com/announce040
http://opentracker-milanesi.rhcloud.com:80/announce030
http://open.kickasstracker.com:443/announce040
http://opentracker-milanesi.rhcloud.com:443/announce030
http://t.nyaatracker.com:80/announce030


File List: 


Comments

No comments still posted

Powered by 10 Hamsters v2-svn -|- Page Generated In 0.995965 secs.
-|- RSS Feed -|- Feed Info
Theme By: Nikkbu