Studio 4°C | Australia on Trial | Foreign Languages Essays


Login
Username:
Password:
[Signup]
[Recover Account]


Browse Torrents

Poll


You must be logged in to view polls



Torrent Details For "Shooter (Bengali Movie) - 1CD - HD Rip[x264 - AAC3(2Ch)]"

Shooter (Bengali Movie) - 1CD - HD Rip[x264 - AAC3(2Ch)]

Download this torrent | Magnet Download
Health:
Seeds: 0
Leechers: 3
Completed:
Last Checked: 14-08-2017 03:47:23
External Torrent
Update Stats


Watch-Free-HD     Download

Poster


Watch-Free-HD     Download

Details
Name:Shooter (Bengali Movie) - 1CD - HD Rip[x264 - AAC3(2Ch)]
Description:
Shooter (Bengali Movie) - 1CD -
HD Rip[x264 - AAC3(2Ch)]
 



General
Format                                   : Matroska
Format version                           : Version 2
File size                                : 700 MiB
Duration                                 : 2 h 39 min

Video
ID                                       : 1
Format                                   : AVC
Format/Info                              : Advanced Video Codec
Format profile                           : [email protected]
Format settings, CABAC                   : Yes
Format settings, RefFrames               : 4 frames
Codec ID                                 : V_MPEG4/ISO/AVC
Duration                                 : 2 h 39 min
Bit rate                                 : 548 kb/s
Width                                    : 560 pixels
Height                                   : 256 pixels
Display aspect ratio                     : 2.2:1
Frame rate mode                          : Constant
Frame rate                               : 25.000 FPS
Color space                              : YUV
Chroma subsampling                       : 4:2:0
Bit depth                                : 8 bits
Scan type                                : Progressive
Bits/(Pixel*Frame)                       : 0.153
Stream size                              : 625 MiB (89%)

Audio
ID                                       : 2
Format                                   : AAC
Format/Info                              : Advanced Audio Codec
Format profile                           : HE-AAC / LC
Codec ID                                 : A_AAC
Duration                                 : 2 h 39 min
Bit rate                                 : 64.0 kb/s
Channel(s)                               : 2 channels
Channel positions                        : Front: L R
Sampling rate                            : 48.0 kHz / 24.0 kHz
Stream size                              : 73.0 MiB (10%)

Thumbnail





Category:Movies > Bengali
Lang:Bengali  Bengali
Total Size:700.09 MB
Info Hash:9ef930576f74b99bd960d15e177f1db9e6eda248
Added By:Pherarim
Date Added:04-08-2017 07:13:38
Downloads:226

Download Torrent

Ratings:Not Yet Rated (Log in to rate it)


Tracker:
udp://9.rarbg.me:2710/announce


File List: 


Comments

No comments still posted

Powered by 10 Hamsters v2-svn -|- Page Generated In 1.329262 secs.
-|- RSS Feed -|- Feed Info
Theme By: Nikkbu